hacg 导航,二次元同人音声网站_[MagicStar] Octo 〜情绪搜查官 心野朱梨〜 / オクトー 〜情绪捜査官 心野朱梨〜 EP02 [WEBDL] [1080p] [HULU]【生】【附日字】

世界 2022-07-15 14:23:33 moeskin
67

HD 1080p from HULU JAPAN.

General Unique ID                      : 337054884750382277438181793477267817703 (0xFD9268D7E4C35BD3F2C01CC5894004E7) Complete name                  : Octo.Kanjou.Sousakan.Shinno.Akari.EP02.1080p.HULU.WEB-DL.AAC2.0.H.264-MagicStar.mkv Format                         : Matroska Format version                 : Version 4 File size                      : 1 008 MiB Duration                       : 43 min 2 s Overall bit rate               : 3 274 kb/s Encoded date                   : UTC 2022-07-14 22:13:12 Writing application            : mkvmerge v50.0.0 ('Awakenings') 64-bit Writing library                : libebml v1.4.0 + libmatroska v1.6.2 Cover                          : Yes Attachments                    : cover.png  Video ID                             : 1 Format                         : AVC Format/Info                    : Advanced Video Codec Format profile                 : [email protected] Format settings                : CABAC / 4 Ref Frames Format settings, CABAC         : Yes Format settings, Reference fra : 4 frames Codec ID                       : V_MPEG4/ISO/AVC Duration                       : 43 min 2 s Bit rate                       : 3 146 kb/s Width                          : 1 920 pixels Height                         : 1 080 pixels Display aspect ratio           : 16:9 Frame rate mode                : Constant Frame rate                     : 29.970 (29970/1000) FPS Original frame rate            : 29.970 (30000/1001) FPS Color space                    : YUV Chroma subsampling             : 4:2:0 Bit depth                      : 8 bits Scan type                      : Progressive Bits/(Pixel*Frame)             : 0.051 Stream size                    : 968 MiB (96%) Default                        : Yes Forced                         : No Color range                    : Limited Color primaries                : BT.709 Transfer characteristics       : BT.709 Matrix coefficients            : BT.709  Audio ID                             : 2 Format                         : AAC LC Format/Info                    : Advanced Audio Codec Low Complexity Codec ID                       : A_AAC-2 Duration                       : 43 min 2 s Bit rate                       : 125 kb/s Channel(s)                     : 2 channels Channel layout                 : L R Sampling rate                  : 48.0 kHz Frame rate                     : 46.875 FPS (1024 SPF) Compression mode               : Lossy Stream size                    : 38.6 MiB (4%) Language                       : Japanese Default                        : Yes Forced                         : No

[GM-Team][国漫][完善天下][Perfect World][2021][67][AVC][GB][1080P]

相关文章